logo

Mayaanadhi (2017) Malayalam - HDRip - x264 - 700MB - AAC - HC-ESu...

  • Category Movies
  • Type DVD
  • Language Malayalam
  • Total size 708.5 MB
  • Uploaded By MovCr
  • Downloads 419
  • Last checked 6 days ago
  • Date uploaded 1 week ago
  • Seeders 55
  • Leechers 7

Infohash : DF801F20C4489027463E2E43808F776406A6386B

http://movcr.com

Mayaanadhi (2017) Malayalam - HDRip - x264 - 700MB - AAC - HC-ESub - MovCr
Download Mayaanadhi (2017) Malayalam - HDRip - x264 - 700MB - AAC - HC-ESub - MovCr Torrent

Video
ID : 1
Format : AVC
Format/Info : Advanced Video Codec
Format profile : [email protected]
Format settings : CABAC / 4 Ref Frames
Format settings, CABAC : Yes
Format settings, ReFrames : 4 frames
Codec ID : V_MPEG4/ISO/AVC
Duration : 2 h 16 min
Bit rate : 597 kb/s
Width : 850 pixels
Height : 480 pixels
Display aspect ratio : 16:9
Frame rate mode : Constant
Frame rate : 25.000 FPS
Color space : YUV
Chroma subsampling : 4:2:0
Bit depth : 8 bits
Scan type : Progressive
Bits/(Pixel*Frame) : 0.059
Stream size : 582 MiB (82%)
Title : www.MovCr.com
Writing library : x264 core 148 r2643 5c65704
Encoding settings : cabac=1 / ref=1 / deblock=1:0:0 / analyse=0x3:0x3 / me=dia / subme=1 / psy=1 / psy_rd=1.00:0.00 / mixed_ref=0 / me_range=16 / chroma_me=1 / trellis=0 / 8x8dct=1 / cqm=0 / deadzone=21,11 / fast_pskip=1 / chroma_qp_offset=0 / threads=12 / lookahead_threads=2 / sliced_threads=0 / nr=0 / decimate=1 / interlaced=0 / bluray_compat=0 / constrained_intra=0 / bframes=3 / b_pyramid=2 / b_adapt=1 / b_bias=0 / direct=1 / weightb=1 / open_gop=0 / weightp=1 / keyint=250 / keyint_min=25 / scenecut=40 / intra_refresh=0 / rc=abr / mbtree=0 / bitrate=597 / ratetol=1.0 / qcomp=0.60 / qpmin=0 / qpmax=69 / qpstep=4 / ip_ratio=1.40 / pb_ratio=1.30 / aq=1:1.00
Default : Yes
Forced : No

Audio
ID : 2
Format : AAC
Format/Info : Advanced Audio Codec
Format profile : LC
Codec ID : A_AAC-2
Duration : 2 h 16 min
Bit rate : 128 kb/s
Channel(s) : 2 channels
Channel positions : Front: L R
Sampling rate : 44.1 kHz
Frame rate : 43.066 FPS (1024 SPF)
Compression mode : Lossy
Delay relative to video : -46 ms
Stream size : 125 MiB (18%)
Title : www.MovCr.com
Default : Yes
Forced : No



Download Mayaanadhi (2017) Malayalam - HDRip - x264 - 700MB - AAC - HC-ESub - MovCr Torrent Download Mayaanadhi (2017) Malayalam - HDRip - x264 - 700MB - AAC - HC-ESub - MovCr Torrent Download Mayaanadhi (2017) Malayalam - HDRip - x264 - 700MB - AAC - HC-ESub - MovCr Torrent

Files:

  • [MovCr.com] - Mayaanadhi (2017) Malayalam - HDRip - x264 - 700MB - AAC - HC-ESub - MovCr.mkv (708.5 MB)

There are currently no comments. Feel free to leave one :)

Code:

  • udp://tracker.openbittorrent.com:80/announce
  • udp://tracker.opentrackr.org:1337/announce
  • udp://tracker.coppersurfer.tk:6969/announce
  • udp://tracker.opentrackr.org:1337/announce
  • udp://tracker.leechers-paradise.org:6969/announce
  • udp://9.rarbg.to:2750/announce
  • udp://eddie4.nl:6969/announce
  • udp://9.rarbg.to:2750/announce
  • udp://tracker.doko.moe:6969/announce
  • udp://thetracker.org:80/announce
  • udp://bt.xxx-tracker.com:2710/announce
  • udp://tracker.vanitycore.co:6969/announce
  • udp://tracker.tiny-vps.com:6969/announce
  • udp://tracker.leechers-paradise.org:6969/announce
  • udp://tracker.opentrackr.org:1337/announce
  • udp://tracker.coppersurfer.tk:6969/announce
  • udp://open.stealth.si:80/announce
  • udp://inferno.demonoid.pw:3418/announce
  • udp://retracker.lanta-net.ru:2710/announce
  • udp://peerfect.org:6969/announce
  • udp://tracker.swateam.org.uk:2710/announce